Skip Navigation
InitialsDiceBearhttps://github.com/dicebear/dicebearhttps://creativecommons.org/publicdomain/zero/1.0/„Initials” (https://github.com/dicebear/dicebear) by „DiceBear”, licensed under „CC0 1.0” (https://creativecommons.org/publicdomain/zero/1.0/)ST
stevestevesteve @lemmy.world
Posts 5
Comments 296
Did YouTube just become login-only?
  • It's available but not flourishing last I checked. Just to be clear I'm not denigrating it at all, I desperatelywant it to flourish. I pay for nebula, too, as well as patreon for many of my preferred creators, in the hopes that they can explore alternatives to YouTube. Hell, I pay for floatplane and dropout too, as much as I hate the fractured environment it's creating, I want the most direct way to support the content I watch, but YouTube is almost certainly still my most watched platform

  • I smell burnt toast
  • How did the active shooter drills for students help that? Tbh they may have helped cause the ideation.

    Lockdown drills possibly for staff I can maybe get on board with, but for students? The universal trauma is IMHO not worth the off chance that it helps in a (still extremely rare) active shooter scenario

  • I smell burnt toast
  • Logic won out, understanding that blasting kids with scary media constantly was impacting their mental health negatively. Almost like we also shouldn't be doing things like freaking kids out with useless shooter drills too...

  • Don't Uwu!

    Just a small lasercut project after too many people were hitting me with "uwu"

    7

    First time engraving edge-lit acrylic: Gengar

    I'm waiting for some different bases to ship so I can give Gengar a spookier color

    1

    Uploading HEVC HDR to youtube?

    I have a sequence in 2100HLG (rec2020 color space) that I'm trying to export in hevc (h265) for submission to youtube. I'm pretty sure I'm doing everything right, but youtube refuses to publish it in HDR...

    Using the guidelines here: https://support.google.com/youtube/answer/7126552#zippy=%2Cupload-requirements

    I've tried several exports, but the most exact to their specs are the two following mediainfos:

    ```Video ID : 1 Format : HEVC Format/Info : High Efficiency Video Coding Format profile : Main [email protected]@High HDR format : SMPTE ST 2086, HDR10 compatible Codec ID : hvc1 Codec ID/Info : High Efficiency Video Coding Duration : 15 s 15 ms Bit rate : 79.0 Mb/s Width : 3 840 pixels Height : 2 160 pixels Display aspect ratio : 16:9 Frame rate mode : Constant Frame rate : 59.940 (60000/1001) FPS Color space : YUV Chroma subsampling : 4:2:0 (Type 2) Bit depth : 10 bits Bits/(Pixel*Frame) : 0.159 Stream size : 141 MiB (100%) Language : English Encoded date : 2024-02-27 09:20:24 UTC Tagged date : 2024-02-27 09:20:24 UTC Color range : Limited Color primaries : BT.2020 Transfer characteristics : PQ Matrix coefficients : BT.2020 non-constant Mastering display color primaries : BT.2020 Mastering display luminance : min: 0.0050 cd/m2, max: 1000 cd/m2 Codec configuration box : hvcC

    Video ID : 1 Format : HEVC Format/Info : High Efficiency Video Coding Format profile : Main [email protected]@High HDR format : SMPTE ST 2086, HDR10 compatible Codec ID : hvc1 Codec ID/Info : High Efficiency Video Coding Duration : 15 s 15 ms Bit rate : 78.6 Mb/s Width : 3 840 pixels Height : 2 160 pixels Display aspect ratio : 16:9 Frame rate mode : Constant Frame rate : 59.940 (60000/1001) FPS Color space : YUV Chroma subsampling : 4:2:0 (Type 2) Bit depth : 10 bits Bits/(Pixel*Frame) : 0.158 Stream size : 141 MiB (100%) Language : English Encoded date : 2024-02-27 09:05:49 UTC Tagged date : 2024-02-27 09:05:49 UTC Color range : Limited Color primaries : BT.2020 Transfer characteristics : HLG Matrix coefficients : BT.2020 non-constant Mastering display color primaries : BT.2020 Mastering display luminance : min: 0.0050 cd/m2, max: 1000 cd/m2 Codec configuration box : hvcC ```

    Is there something glaring I'm missing?

    6

    I made a lasercut "gingerbread house" gift box to avoid gift wrapping...

    Made of 1/8" Birch ply, stained and painted

    4

    Does anyone have a go-to source for lasercutting-adjacent supplies (e.g. backlit photo frames)?

    My latest shopping nightmare has been trying to find 12x12" or 4x4" photo frames that are already backlit or that I can easily backlight so I can put etched mirrors (or etched acrylic or glass) and have it look SUPER COOL. I feel sure that these things exist somewhere but trying to search the current web marketplaces (amazon, ali*, etc) is super frustrating.

    3